<svg xmlns="http://www.w3.org/2000/svg"><defs><font horiz-adv-x="1169"><font-face units-per-em="2048" ascent="1638" descent="-410"/><glyph unicode="ﬁ" horiz-adv-x="1417" d="M41 0zm737 889H514V0H209v889H41v147l168 82v82q0 191 94 279t301 88q158 0 281-47l-78-224q-92 29-170 29-65 0-94-38.5t-29-98.5v-70h264V889zm162 518q0 149 166 149t166-149q0-71-41.5-110.5T1106 1257q-166 0-166 150zM1258 0H953v1118h305V0z"/><glyph unicode="ﬂ" horiz-adv-x="1417" d="M41 0zm737 889H514V0H209v889H41v147l168 82v82q0 191 94 279t301 88q158 0 281-47l-78-224q-92 29-170 29-65 0-94-38.5t-29-98.5v-70h264V889zM1258 0H953v1556h305V0z"/><glyph unicode="ﬃ" horiz-adv-x="2208" d="M41 0zm737 889H514V0H209v889H41v147l168 82v82q0 191 94 279t301 88q158 0 281-47l-78-224q-92 29-170 29-65 0-94-38.5t-29-98.5v-70h264V889zm793 0h-264V0h-305v889H834v147l168 82v82q0 191 94 279t301 88q158 0 281-47l-78-224q-92 29-170 29-65 0-94-38.5t-29-98.5v-70h264V889zm159 518q0 149 166 149t166-149q0-71-41.5-110.5T1896 1257q-166 0-166 150zM2048 0h-305v1118h305V0z"/><glyph unicode="ﬄ" horiz-adv-x="2208" d="M41 0zm737 889H514V0H209v889H41v147l168 82v82q0 191 94 279t301 88q158 0 281-47l-78-224q-92 29-170 29-65 0-94-38.5t-29-98.5v-70h264V889zm793 0h-264V0h-305v889H834v147l168 82v82q0 191 94 279t301 88q158 0 281-47l-78-224q-92 29-170 29-65 0-94-38.5t-29-98.5v-70h264V889zM2048 0h-305v1556h305V0z"/><glyph horiz-adv-x="2048"/><glyph horiz-adv-x="2048"/><glyph horiz-adv-x="1044"/><glyph horiz-adv-x="532"/><glyph horiz-adv-x="532"/><glyph horiz-adv-x="532"/><glyph unicode="!" horiz-adv-x="586" d="M416 485H172l-51 977h346zM117 143q0 84 45 127t131 43q83 0 128.5-44T467 143q0-79-46-124.5T293-27q-84 0-130 44.5T117 143z"/><glyph unicode="&amp;quot;" horiz-adv-x="967" d="M412 1462l-41-528H174l-41 528h279zm422 0l-41-528H596l-41 528h279z"/><glyph unicode="#" horiz-adv-x="1323" d="M999 844l-47-232h258V406H913L836 0H616l78 406H500L424 0H209l74 406H45v206h277l47 232H117v209h289l77 407h219l-77-407h198l78 407h215l-78-407h240V844H999zM539 612h196l47 232H586z"/><glyph unicode="$" d="M1092 457q0-159-115-255.5T655 86v-205H518V82q-244 5-428 86v264q87-43 209.5-76T518 317v310l-67 26q-198 78-280.5 169.5T88 1049q0 145 113.5 238.5T518 1401v153h137v-149q229-10 414-92l-94-234q-156 64-320 78V862q195-75 277.5-130t121-121 38.5-154zm-301-15q0 42-34 71t-102 60V324q136 23 136 118zm-402 607q0-44 30.5-72.5T518 918v235q-129-19-129-104z"/><glyph unicode="%" horiz-adv-x="1845" d="M315 1024q0-127 22.5-189.5T410 772q96 0 96 252 0 250-96 250-50 0-72.5-61.5T315 1024zm443 2q0-230-89-345.5T408 565q-165 0-255 118.5T63 1026q0 457 345 457 169 0 259.5-118.5T758 1026zm688 436L635 0H395l811 1462h240zM1339 440q0-127 22.5-189.5T1434 188q96 0 96 252 0 250-96 250-50 0-72.5-61.5T1339 440zm443 2q0-229-89-344.5T1432-18q-165 0-255 118.5T1087 442q0 457 345 457 169 0 259.5-118.5T1782 442z"/><glyph unicode="&amp;" horiz-adv-x="1536" d="M1536 0h-377l-115 113Q853-20 612-20 368-20 225 92T82 395q0 137 60.5 233.5T350 809q-75 86-109 164.5T207 1145q0 152 116.5 245t311.5 93q186 0 297.5-86.5T1044 1165q0-119-69-217.5T752 760l284-277q71 117 123 301h318q-36-135-99-263.5T1235 293zM403 424q0-86 64.5-137T633 236q126 0 227 61L528 627q-58-44-91.5-92T403 424zm359 709q0 53-36 83.5t-93 30.5q-67 0-105.5-32t-38.5-91q0-88 95-194 86 48 132 94.5t46 108.5z"/><glyph unicode="'" horiz-adv-x="545" d="M412 1462l-41-528H174l-41 528h279z"/><glyph unicode="(" horiz-adv-x="694" d="M82 561q0 265 77.5 496T383 1462h250q-141-193-213-424t-72-475q0-245 73.5-473.5T631-324H383Q236-154 159 73T82 561z"/><glyph unicode=")" horiz-adv-x="694" d="M612 561q0-263-77.5-490T311-324H63Q198-140 272 88.5T346 563q0 244-72 475T61 1462h250q147-175 224-406.5T612 561z"/><glyph unicode="*" horiz-adv-x="1116" d="M688 1556l-41-368 373 104 33-252-340-24 223-297-227-121-156 313-137-311-236 119 221 297-338 26 39 250 365-104-41 368h262z"/><glyph unicode="+" d="M475 612H88v219h387v390h219V831h387V612H694V227H475v385z"/><glyph unicode="," horiz-adv-x="594" d="M459 215Q407 13 283-264H63Q128 2 164 238h280z"/><glyph unicode="-" horiz-adv-x="659" d="M61 424v250h537V424H61z"/><glyph unicode="." horiz-adv-x="584" d="M117 143q0 84 45 127t131 43q83 0 128.5-44T467 143q0-79-46-124.5T293-27q-84 0-130 44.5T117 143z"/><glyph unicode="/" horiz-adv-x="846" d="M836 1462L291 0H14l545 1462h277z"/><glyph unicode="0" d="M1096 731q0-383-125.5-567T584-20q-253 0-381.5 190T74 731q0 387 125 570.5T584 1485q253 0 382.5-192T1096 731zm-715 0q0-269 46.5-385.5T584 229q108 0 156 118t48 384q0 269-48.5 386.5T584 1235q-109 0-156-117.5T381 731z"/><glyph unicode="1" d="M846 0H537v846l3 139 5 152q-77-77-107-101L270 901l-149 186 471 375h254V0z"/><glyph unicode="2" d="M1104 0H82v215l367 371q163 167 213 231.5T734 937t22 114q0 88-48.5 131T578 1225q-85 0-165-39t-167-111L78 1274q108 92 179 130t155 58.5 188 20.5q137 0 242-50t163-140 58-206q0-101-35.5-189.5T917.5 716 655 451L467 274v-14h637V0z"/><glyph unicode="3" d="M1047 1135q0-137-83-233T731 770v-6q177-22 268-107.5t91-230.5q0-211-153-328.5T500-20Q262-20 78 59v263q85-43 187-70t202-27q153 0 226 52t73 167q0 103-84 146t-268 43H303v237h113q170 0 248.5 44.5T743 1067q0 166-208 166-72 0-146.5-24T223 1126L80 1339q200 144 477 144 227 0 358.5-92t131.5-256z"/><glyph unicode="4" d="M1137 303H961V0H659v303H35v215l641 944h285V543h176V303zM659 543v248q0 62 5 180t8 137h-8q-37-82-89-160L307 543h352z"/><glyph unicode="5" d="M614 934q212 0 337.5-119T1077 489q0-245-151-377T494-20q-244 0-394 79v267q79-42 184-68.5T483 231q283 0 283 232 0 221-293 221-53 0-117-10.5T252 651l-123 66 55 745h793v-262H455l-27-287 35 7q61 14 151 14z"/><glyph unicode="6" d="M72 621q0 434 183.5 646T805 1479q125 0 196-15v-247q-89 20-176 20-159 0-259.5-48T415 1047t-59-267h13q99 170 317 170 196 0 307-123t111-340q0-234-132-370.5T606-20q-162 0-282.5 75t-186 219T72 621zm528-394q99 0 152 66.5T805 483q0 107-49.5 168.5T606 713q-94 0-160.5-61T379 510q0-119 62.5-201T600 227z"/><glyph unicode="7" d="M227 0l549 1200H55v260h1049v-194L551 0H227z"/><glyph unicode="8" d="M586 1481q210 0 338.5-95.5T1053 1128q0-112-62-199.5T791 772q164-88 235.5-183.5T1098 379q0-180-141-289.5T586-20Q346-20 209 82T72 371q0 125 66.5 222T352 764q-125 79-180 169t-55 197q0 157 130 254t339 97zM358 389q0-86 60-134t164-48q115 0 172 49.5T811 387q0 67-56.5 125.5T571 637q-213-98-213-248zm226 866q-79 0-127.5-40.5T408 1106q0-60 38.5-107.5T586 901q98 46 137 94t39 111q0 69-50 109t-128 40z"/><glyph unicode="9" d="M1098 838q0-432-182-645T365-20Q235-20 168-6v248q84-21 176-21 155 0 255 45.5t153 143T813 678h-12q-58-94-134-132t-190-38q-191 0-301 122.5T66 971q0 235 133.5 371.5T563 1479q162 0 283.5-76t186.5-220.5 65-344.5zm-529 393q-96 0-150-66t-54-190q0-106 49-168t149-62q94 0 161 61.5T791 948q0 119-62.5 201T569 1231z"/><glyph unicode=":" horiz-adv-x="584" d="M117 143q0 84 45 127t131 43q83 0 128.5-44T467 143q0-79-46-124.5T293-27q-84 0-130 44.5T117 143zm0 826q0 84 45 127t131 43q83 0 128.5-44T467 969q0-81-46.5-125.5T293 799q-84 0-130 44t-46 126z"/><glyph unicode=";" horiz-adv-x="594" d="M444 238l15-23Q407 13 283-264H63Q128 2 164 238h280zM117 969q0 84 45 127t131 43q83 0 128.5-44T467 969q0-81-46.5-125.5T293 799q-84 0-130 44t-46 126z"/><glyph unicode="<" d="M1081 203L88 641v143l993 496v-240L397 723l684-281V203z"/><glyph unicode="=" d="M88 805v219h993V805H88zm0-387v219h993V418H88z"/><glyph unicode=">" d="M88 442l684 281-684 317v240l993-496V641L88 203v239z"/><glyph unicode="?" horiz-adv-x="977" d="M276 485v74q0 96 41 167t150 151q105 75 138.5 122t33.5 105q0 65-48 99t-134 34q-150 0-342-98L6 1358q223 125 473 125 206 0 327.5-99T928 1120q0-110-50-190T688 750q-96-71-121.5-108T541 545v-60H276zm-32-342q0 84 45 127t131 43q83 0 128.5-44T594 143q0-79-46-124.5T420-27q-84 0-130 44.5T244 143z"/><glyph unicode="@" horiz-adv-x="1837" d="M1735 752q0-144-46-263.5T1559 301t-195-68q-74 0-131 35.5t-82 93.5h-16q-108-129-275-129-177 0-279 106.5T479 631q0 211 134 340t350 129q86 0 189.5-16.5T1323 1044l-23-489q0-139 76-139 64 0 102 93.5t38 244.5q0 161-67 284.5T1260.5 1227 983 1292q-202 0-351-83T403.5 969.5 324 608q0-276 147.5-423.5T899 37q106 0 233 23.5t250 68.5V-63q-214-91-475-91-380 0-592.5 200T102 602q0 247 108.5 448.5t309 316T981 1481q220 0 393-90t267-256 94-383zM711 627q0-211 172-211 90 0 137 63.5t57 206.5l13 221q-51 11-115 11-125 0-194.5-78T711 627z"/><glyph unicode="A" horiz-adv-x="1413" d="M1079 0L973 348H440L334 0H0l516 1468h379L1413 0h-334zM899 608q-147 473-165.5 535t-26.5 98q-33-128-189-633h381z"/><glyph unicode="B" horiz-adv-x="1376" d="M184 1462h455q311 0 451.5-88.5T1231 1092q0-131-61.5-215T1006 776v-10q139-31 200.5-116t61.5-226q0-200-144.5-312T731 0H184v1462zm310-579h180q126 0 182.5 39t56.5 129q0 84-61.5 120.5T657 1208H494V883zm0-246V256h202q128 0 189 49t61 150q0 182-260 182H494z"/><glyph unicode="C" horiz-adv-x="1305" d="M805 1225q-175 0-271-131.5T438 727q0-489 367-489 154 0 373 77V55Q998-20 776-20q-319 0-488 193.5T119 729q0 228 83 399.5t238.5 263T805 1483q213 0 428-103l-100-252q-82 39-165 68t-163 29z"/><glyph unicode="D" horiz-adv-x="1516" d="M1397 745q0-361-205.5-553T598 0H184v1462h459q358 0 556-189t198-528zm-322-8q0 471-416 471H494V256h133q448 0 448 481z"/><glyph unicode="E" horiz-adv-x="1147" d="M1026 0H184v1462h842v-254H494V887h495V633H494V256h532V0z"/><glyph unicode="F" horiz-adv-x="1124" d="M489 0H184v1462h838v-254H489V831h496V578H489V0z"/><glyph unicode="G" horiz-adv-x="1483" d="M739 821h580V63q-141-46-265.5-64.5T799-20q-331 0-505.5 194.5T119 733q0 354 202.5 552T883 1483q225 0 434-90l-103-248q-160 80-333 80-201 0-322-135T438 727q0-238 97.5-363.5T819 238q97 0 197 20v305H739v258z"/><glyph unicode="H" horiz-adv-x="1567" d="M1382 0h-309v631H494V0H184v1462h310V889h579v573h309V0z"/><glyph unicode="I" horiz-adv-x="678" d="M184 0v1462h310V0H184z"/><glyph unicode="J" horiz-adv-x="678" d="M31-430q-105 0-183 22v258q80-20 146-20 102 0 146 63.5T184 92v1370h310V94q0-256-117-390T31-430z"/><glyph unicode="K" horiz-adv-x="1360" d="M1360 0h-352L625 616l-131-94V0H184v1462h310V793l122 172 396 497h344L846 815z"/><glyph unicode="L" horiz-adv-x="1157" d="M184 0v1462h310V256h593V0H184z"/><glyph unicode="M" horiz-adv-x="1931" d="M803 0L451 1147h-9q19-350 19-467V0H184v1462h422L952 344h6l367 1118h422V0h-289v692q0 49 1.5 113t13.5 340h-9L1087 0H803z"/><glyph unicode="N" horiz-adv-x="1665" d="M1481 0h-394L451 1106h-9q19-293 19-418V0H184v1462h391l635-1095h7q-15 285-15 403v692h279V0z"/><glyph unicode="O" horiz-adv-x="1630" d="M1511 733q0-363-180-558T815-20 299 175 119 735t180.5 557.5T817 1485t515.5-194T1511 733zm-1067 0q0-245 93-369t278-124q371 0 371 493 0 494-369 494-185 0-279-124.5T444 733z"/><glyph unicode="P" horiz-adv-x="1286" d="M494 774h102q143 0 214 56.5T881 995q0 109-59.5 161T635 1208H494V774zm700 232q0-236-147.5-361T627 520H494V0H184v1462h467q266 0 404.5-114.5T1194 1006z"/><glyph unicode="Q" horiz-adv-x="1630" d="M1511 733q0-258-91.5-432.5T1151 45l352-393h-397L838-20h-23q-336 0-516 195T119 735t180.5 557.5T817 1485t515.5-194T1511 733zm-1067 0q0-245 93-369t278-124q371 0 371 493 0 494-369 494-185 0-279-124.5T444 733z"/><glyph unicode="R" horiz-adv-x="1352" d="M494 813h100q147 0 217 49t70 154q0 104-71.5 148T588 1208h-94V813zm0-252V0H184v1462h426q298 0 441-108.5t143-329.5q0-129-71-229.5T922 637q330-493 430-637h-344L659 561H494z"/><glyph unicode="S" horiz-adv-x="1128" d="M1047 406q0-198-142.5-312T508-20Q274-20 94 68v288q148-66 250.5-93T532 236q102 0 156.5 39T743 391q0 43-24 76.5T648.5 532 459 631q-134 63-201 121T151 887t-40 180q0 194 131.5 305T606 1483q114 0 217.5-27t216.5-76l-100-241q-117 48-193.5 67T596 1225q-88 0-135-41t-47-107q0-41 19-71.5t60.5-59T690 844q205-98 281-196.5t76-241.5z"/><glyph unicode="T" horiz-adv-x="1186" d="M748 0H438v1204H41v258h1104v-258H748V0z"/><glyph unicode="U" horiz-adv-x="1548" d="M1374 1462V516q0-162-72.5-284T1092 45 768-20q-282 0-438 144.5T174 520v942h309V567q0-169 68-248t225-79q152 0 220.5 79.5T1065 569v893h309z"/><glyph unicode="V" horiz-adv-x="1331" d="M1018 1462h313L834 0H496L0 1462h313l275-870q23-77 47.5-179.5T666 270q11 92 75 322z"/><glyph unicode="W" horiz-adv-x="1980" d="M1608 0h-353l-198 768q-11 41-37.5 169.5T989 1110q-6-54-30-173.5T922 766L725 0H373L0 1462h305l187-798q49-221 71-383 6 57 27.5 176.5T631 643l213 819h293l213-819q14-55 35-168t32-194q10 78 32 194.5t40 188.5l186 798h305z"/><glyph unicode="X" horiz-adv-x="1366" d="M1366 0h-354L672 553 332 0H0l485 754-454 708h342l315-526 309 526h334L872 737z"/><glyph unicode="Y" horiz-adv-x="1278" d="M639 860l305 602h334L793 569V0H485v559L0 1462h336z"/><glyph unicode="Z" horiz-adv-x="1186" d="M1137 0H49v201l701 1005H68v256h1050v-200L418 256h719V0z"/><glyph unicode="[" horiz-adv-x="678" d="M627-324H143v1786h484v-211H403V-113h224v-211z"/><glyph unicode="\" horiz-adv-x="846" d="M289 1462L834 0H557L12 1462h277z"/><glyph unicode="]" horiz-adv-x="678" d="M51-113h223v1364H51v211h484V-324H51v211z"/><glyph unicode="^" horiz-adv-x="1090" d="M8 520l438 950h144l495-950H846l-322 643-280-643H8z"/><glyph unicode="_" horiz-adv-x="842" d="M846-324H-4v140h850v-140z"/><glyph unicode="`" horiz-adv-x="1243" d="M707 1241q-63 44-185 142.5T332 1548v21h342q63-101 235-301v-27H707z"/><glyph unicode="a" horiz-adv-x="1237" d="M870 0l-59 152h-8Q726 55 644.5 17.5T432-20q-161 0-253.5 92T86 334q0 178 124.5 262.5T586 690l194 6v49q0 170-174 170-134 0-315-81l-101 206q193 101 428 101 225 0 345-98t120-298V0H870zm-90 518l-118-4q-133-4-198-48t-65-134q0-129 148-129 106 0 169.5 61T780 426v92z"/><glyph unicode="b" horiz-adv-x="1296" d="M782 1139q198 0 310-154.5T1204 561q0-277-115.5-429T774-20q-197 0-309 143h-21L393 0H160v1556h305v-362q0-69-12-221h12q107 166 317 166zm-98-244q-113 0-165-69.5T465 596v-33q0-180 53.5-258T688 227q94 0 149.5 86.5T893 565t-56 247.5T684 895z"/><glyph unicode="c" horiz-adv-x="1053" d="M614-20Q92-20 92 553q0 285 142 435.5T641 1139q194 0 348-76l-90-236q-72 29-134 47.5T641 893q-238 0-238-338 0-328 238-328 88 0 163 23.5T954 324V63Q880 16 804.5-2T614-20z"/><glyph unicode="d" horiz-adv-x="1296" d="M514-20q-197 0-309.5 153T92 557q0 275 114.5 428.5T522 1139q211 0 322-164h10q-23 125-23 223v358h306V0H903l-59 145h-13Q727-20 514-20zm107 243q117 0 171.5 68T852 522v33q0 180-55.5 258T616 891q-102 0-158.5-86.5T401 553t57-247.5T621 223z"/><glyph unicode="e" horiz-adv-x="1210" d="M623 922q-97 0-152-61.5T408 686h428q-2 113-59 174.5T623 922zm43-942q-270 0-422 149T92 551q0 281 140.5 434.5T621 1139q237 0 369-135t132-373V483H401q5-130 77-203t202-73q101 0 191 21t188 67V59Q979 19 888-.5T666-20z"/><glyph unicode="f" horiz-adv-x="793" d="M778 889H514V0H209v889H41v147l168 82v82q0 191 94 279t301 88q158 0 281-47l-78-224q-92 29-170 29-65 0-94-38.5t-29-98.5v-70h264V889z"/><glyph unicode="g" horiz-adv-x="1157" d="M1133 1118V963l-175-45q48-75 48-168 0-180-125.5-280.5T532 369l-55 3-45 5q-47-36-47-80 0-66 168-66h190q184 0 280.5-79T1120-80q0-196-163.5-304T487-492q-234 0-357.5 81.5T6-182Q6-81 69-13t185 97q-47 20-82 65.5T137 246q0 64 37 106.5T281 436q-88 38-139.5 122T90 756q0 183 119 283t340 100q47 0 111.5-8.5T743 1118h390zM270-158q0-63 60.5-99T500-293q164 0 257 45t93 123q0 63-55 87T625-14H467q-84 0-140.5-39.5T270-158zm111 910q0-91 41.5-144T549 555q86 0 126 53t40 144q0 202-166 202-168 0-168-202z"/><glyph unicode="h" horiz-adv-x="1346" d="M1192 0H887v653q0 242-180 242-128 0-185-87t-57-282V0H160v1556h305v-317q0-37-7-174l-7-90h16q102 164 324 164 197 0 299-106t102-304V0z"/><glyph unicode="i" horiz-adv-x="625" d="M147 1407q0 149 166 149t166-149q0-71-41.5-110.5T313 1257q-166 0-166 150zM465 0H160v1118h305V0z"/><glyph unicode="j" horiz-adv-x="625" d="M70-492q-117 0-201 25v240q70-19 143-19 77 0 112.5 43T160-76v1194h305V-121q0-178-103-274.5T70-492zm77 1899q0 149 166 149t166-149q0-71-41.5-110.5T313 1257q-166 0-166 150z"/><glyph unicode="k" horiz-adv-x="1270" d="M453 608l133 170 313 340h344L799 633 1270 0H918L596 453 465 348V0H160v1556h305V862l-16-254h4z"/><glyph unicode="l" horiz-adv-x="625" d="M465 0H160v1556h305V0z"/><glyph unicode="m" horiz-adv-x="2011" d="M1161 0H856v653q0 121-40.5 181.5T688 895q-117 0-170-86t-53-283V0H160v1118h233l41-143h17q45 77 130 120.5t195 43.5q251 0 340-164h27q45 78 132.5 121t197.5 43q190 0 287.5-97.5T1858 729V0h-306v653q0 121-40.5 181.5T1384 895q-112 0-167.5-80T1161 561V0z"/><glyph unicode="n" horiz-adv-x="1346" d="M1192 0H887v653q0 121-43 181.5T707 895q-128 0-185-85.5T465 526V0H160v1118h233l41-143h17q51 81 140.5 122.5T795 1139q195 0 296-105.5T1192 729V0z"/><glyph unicode="o" horiz-adv-x="1268" d="M403 561q0-166 54.5-251T635 225q122 0 175.5 84.5T864 561q0 166-54 249t-177 83q-122 0-176-82.5T403 561zm773 0q0-273-144-427T631-20q-161 0-284 70.5T158 253 92 561q0 274 143 426t402 152q161 0 284-70t189-201 66-307z"/><glyph unicode="p" horiz-adv-x="1296" d="M774-20q-197 0-309 143h-16q16-140 16-162v-453H160v1610h248l43-145h14q107 166 317 166 198 0 310-153t112-425q0-179-52.5-311T1002 49 774-20zm-90 915q-113 0-165-69.5T465 596v-33q0-180 53.5-258T688 227q205 0 205 338 0 165-50.5 247.5T684 895z"/><glyph unicode="q" horiz-adv-x="1296" d="M623 219q116 0 170 66.5T852 518v37q0 180-55.5 258T618 891q-215 0-215-338 0-168 53.5-251T623 219zM514-20q-198 0-310 152.5T92 557q0 274 114.5 428T520 1139q106 0 185-40t139-124h8l27 143h258V-492H831v469q0 61 13 168h-13Q782 64 701 22T514-20z"/><glyph unicode="r" horiz-adv-x="930" d="M784 1139q62 0 103-9l-23-286q-37 10-90 10-146 0-227.5-75T465 569V0H160v1118h231l45-188h15q52 94 140.5 151.5T784 1139z"/><glyph unicode="s" horiz-adv-x="1018" d="M940 332q0-172-119.5-262T463-20Q341-20 255-3.5T94 45v252q85-40 191.5-67T473 203q166 0 166 96 0 36-22 58.5t-76 51T397 475q-129 54-189.5 100t-88 105.5T92 827q0 149 115.5 230.5T535 1139q202 0 393-88l-92-220q-84 36-157 59t-149 23q-135 0-135-73 0-41 43.5-71T629 680q131-53 192-99t90-106 29-143z"/><glyph unicode="t" horiz-adv-x="889" d="M631 223q80 0 192 35V31Q709-20 543-20q-183 0-266.5 92.5T193 350v539H47v129l168 102 88 236h195v-238h313V889H498V350q0-65 36.5-96t96.5-31z"/><glyph unicode="u" horiz-adv-x="1346" d="M952 0l-41 143h-16Q846 65 756 22.5T551-20Q354-20 254 85.5T154 389v729h305V465q0-121 43-181.5T639 223q128 0 185 85.5T881 592v526h305V0H952z"/><glyph unicode="v" horiz-adv-x="1165" d="M426 0L0 1118h319l216-637q36-121 45-229h6q5 96 45 229l215 637h319L739 0H426z"/><glyph unicode="w" horiz-adv-x="1753" d="M1079 0l-86 391-116 494h-7L666 0H338L20 1118h304l129-495q31-133 63-367h6q4 76 35 241l16 85 138 536h336l131-536q4-22 12.5-65t16.5-91.5 14.5-95 7.5-74.5h6q9 72 32 197.5t33 169.5l134 495h299L1411 0h-332z"/><glyph unicode="x" horiz-adv-x="1184" d="M389 571L29 1118h346l217-356 219 356h346L793 571 1174 0H827L592 383 356 0H10z"/><glyph unicode="y" horiz-adv-x="1165" d="M0 1118h334l211-629q27-82 37-194h6q11 103 43 194l207 629h327L692-143q-65-175-185.5-262T225-492q-79 0-155 17v242q55-13 120-13 81 0 141.5 49.5T426-47l18 55z"/><glyph unicode="z" horiz-adv-x="999" d="M938 0H55v180l518 705H86v233h834V920L416 233h522V0z"/><glyph unicode="{" horiz-adv-x="807" d="M287 270q0 87-65.5 133T31 449v239q126 0 191 44t65 126v326q0 153 97 215.5t341 62.5v-225q-99-3-136.5-38T551 1096V797q-6-188-234-222v-12q234-35 234-212V43q0-68 37-103t137-38v-226q-244 0-341 62.5T287-45v315z"/><glyph unicode="|" horiz-adv-x="1128" d="M455 1550h219V-465H455v2015z"/><glyph unicode="}" horiz-adv-x="807" d="M520-45q0-112-41-169t-135.5-83.5T82-324v226q99 2 136.5 36T256 43v310q0 86 59 139.5T489 563v12q-227 34-233 222v299q0 70-37 104t-137 37v225q167 0 262-26.5t135.5-84T520 1184V856q0-84 61.5-126T776 688V449q-125 0-190.5-41T520 270V-45z"/><glyph unicode="~" d="M322 672q-55 0-117.5-33.5T88 551v231q103 109 256 109 73 0 137.5-16T621 827q129-55 227-55 53 0 116 32t117 89V662Q980 553 825 553q-66 0-126 13t-150 50q-131 56-227 56z"/><glyph unicode="¡" horiz-adv-x="586" d="M168 606h244l51-975H117zm299 342q0-84-45-127t-131-43q-83 0-128.5 44T117 948q0 81 46.5 125.5T291 1118q84 0 130-44t46-126z"/><glyph unicode="¢" d="M563 176q-420 59-420 565 0 261 104.5 403T563 1317v166h178v-158q166-9 299-74l-90-235q-72 29-134 47t-124 18q-121 0-179-83.5T455 743q0-327 237-327 82 0 148 15.5t166 60.5V238q-127-61-265-70V-20H563v196z"/><glyph unicode="£" d="M700 1483q195 0 390-82l-93-230q-157 64-272 64-78 0-120-44.5T563 1063V870h375V651H563V508q0-170-151-248h718V0H82v248q103 44 141.5 101T262 506v145H84v219h178v195q0 201 114.5 309.5T700 1483z"/><glyph unicode="¤" d="M188 723q0 102 54 197l-129 127 147 147 127-127q91 53 197 53 105 0 196-55l127 129 150-143-129-129q53-89 53-199 0-107-53-199l125-125-146-145-127 125q-95-51-196-51-115 0-199 51L260 256 115 401l127 125q-54 93-54 197zm207 0q0-77 54.5-132.5T584 535q81 0 136.5 55T776 723q0 80-56.5 135T584 913q-78 0-133.5-56T395 723z"/><glyph unicode="¥" d="M584 860l264 602h313L778 715h195V537H727V399h246V221H727V0H440v221H193v178h247v138H193v178h190L6 1462h316z"/><glyph unicode="¦" horiz-adv-x="1128" d="M455 1550h219V735H455v815zm0-1200h219v-815H455v815z"/><glyph unicode="§" horiz-adv-x="995" d="M121 805q0 79 36 144.5t97 105.5q-133 84-133 233 0 131 111.5 210t293.5 79q170 0 363-84l-82-190q-68 32-138.5 57.5T520 1386q-81 0-118-23t-37-71q0-49 49.5-86t163.5-82q163-64 240-148.5T895 782q0-177-125-260 62-40 93.5-92.5T895 303q0-148-119.5-235.5T455-20q-203 0-349 79v207q81-41 180-69.5T455 168q194 0 194 117 0 39-18.5 63T567 397.5 442 457q-183 74-252 152.5T121 805zm223 22q0-67 65-119t181-98q78 57 78 146 0 68-50.5 115T434 967q-37-14-63.5-53.5T344 827z"/><glyph unicode="¨" horiz-adv-x="1243" d="M279 1405q0 65 37.5 100t101.5 35q66 0 103.5-37t37.5-98q0-60-38-96.5T418 1272q-64 0-101.5 35t-37.5 98zm403 0q0 70 40.5 102.5T823 1540q65 0 103.5-36t38.5-99q0-61-39-97t-103-36q-60 0-100.5 32.5T682 1405z"/><glyph unicode="©" horiz-adv-x="1704" d="M895 1010q-97 0-150-74t-53-205q0-280 203-280 57 0 123 15t123 44V319q-120-57-252-57-204 0-316 125T461 733q0 220 110.5 342.5T881 1198q149 0 305-78l-74-168q-113 58-217 58zM100 731q0 200 100 375t275 276 377 101q200 0 375-100t276-275 101-377q0-197-97-370T1235 84 852-20Q645-20 470 83.5T197.5 360 100 731zm142 0q0-164 82-305.5t224-223T852 121q164 0 305.5 82t223 224 81.5 304q0 164-82 305.5t-224 223-304 81.5q-164 0-305.5-82t-223-224T242 731z"/><glyph unicode="ª" horiz-adv-x="784" d="M561 764l-31 110q-43-58-105-90t-136-32q-117 0-179.5 58.5T47 975q0 109 82.5 163.5T397 1202l99 4q0 117-127 117-81 0-217-61l-66 135q66 32 145.5 57t178.5 25q137 0 211.5-71t74.5-202V764H561zM252 977q0-38 23-56t55-18q77 0 121.5 41.5T496 1051v36l-99-6q-145-10-145-104z"/><glyph unicode="«" horiz-adv-x="1260" d="M82 573l371 455 219-119-279-348 279-348L453 94 82 547v26zm506 0l370 455 220-119-279-348 279-348L958 94 588 547v26z"/><glyph unicode="¬" d="M1081 248H862v364H88v219h993V248z"/><glyph unicode="­" horiz-adv-x="659" d="M61 424zm0 0v250h537V424H61z"/><glyph unicode="®" horiz-adv-x="1704" d="M1157 905q0-170-143-233l237-400H997L819 610h-47V272H543v916h264q181 0 265.5-70t84.5-213zM772 778h31q66 0 94.5 28.5T926 901q0 65-28 92t-97 27h-29V778zm-672-47q0 200 100 375t275 276 377 101q200 0 375-100t276-275 101-377q0-197-97-370T1235 84 852-20Q645-20 470 83.5T197.5 360 100 731zm142 0q0-164 82-305.5t224-223T852 121q164 0 305.5 82t223 224 81.5 304q0 164-82 305.5t-224 223-304 81.5q-164 0-305.5-82t-223-224T242 731z"/><glyph unicode="¯" horiz-adv-x="1024" d="M1030 1556H-6v201h1036v-201z"/><glyph unicode="°" horiz-adv-x="877" d="M92 1137q0 92 46 172t126 127 174 47q92 0 172.5-46t127-127 46.5-173q0-93-46.5-173.5T611 838t-173-45q-145 0-245.5 99.5T92 1137zm191 0q0-64 44.5-109T438 983t111 46 45 108q0 63-45.5 110T438 1294q-64 0-109.5-46T283 1137z"/><glyph unicode="±" d="M475 674H88v219h387v389h219V893h387V674H694V289H475v385zM88 0v219h993V0H88z"/><glyph unicode="²" horiz-adv-x="776" d="M702 586H55v168l224 219q102 100 130.5 144.5T438 1212q0 38-24 58t-64 20q-81 0-180-88L47 1354q147 129 336 129 137 0 216-66.5t79-183.5q0-85-47-160T455 881l-105-95h352V586z"/><glyph unicode="³" horiz-adv-x="776" d="M666 1249q0-143-170-198v-13q94-20 146-75t52-134q0-121-88-190.5T332 569q-143 0-273 70v190q148-90 271-90 143 0 143 107 0 53-44 79.5T307 952H195v160h92q83 0 123.5 26t40.5 83q0 38-25 63t-76 25q-47 0-89-19t-99-59L61 1372q62 47 137.5 78t178.5 31q127 0 208-64t81-168z"/><glyph unicode="´" horiz-adv-x="1243" d="M332 1241v27q172 200 235 301h342v-21q-52-52-177.5-154.5T535 1241H332z"/><glyph unicode="µ" horiz-adv-x="1352" d="M465 465q0-121 44-181.5T647 223q126 0 183 86.5T887 592v526h305V0H961l-43 150h-15Q861 65 801 22.5T653-20q-62 0-114 23t-84 67l5-85 5-157v-320H160v1610h305V465z"/><glyph unicode="¶" horiz-adv-x="1341" d="M1167-260h-161v1616H840V-260H678v819q-62-18-146-18-216 0-317.5 125T113 1042q0 260 109 387t341 127h604V-260z"/><glyph unicode="·" horiz-adv-x="584" d="M117 723q0 84 45 127t131 43q83 0 128.5-44T467 723q0-81-46.5-125.5T293 553q-84 0-130 44t-46 126z"/><glyph unicode="¸" horiz-adv-x="420" d="M418-250q0-128-75.5-185T109-492q-78 0-146 21v168q27-7 72.5-14t70.5-7q72 0 72 62 0 83-166 108L90 0h193l-27-61q74-24 118-74.5T418-250z"/><glyph unicode="¹" horiz-adv-x="776" d="M584 586H346v446l3 112 5 95q-27-36-75-78l-78-61-109 127 301 235h191V586z"/><glyph unicode="º" horiz-adv-x="795" d="M737 1116q0-171-91.5-267.5T395 752q-153 0-245.5 98.5T57 1116q0 169 89.5 266t252.5 97q152 0 245-98.5t93-264.5zm-477 0q0-100 32.5-150.5T397 915t103.5 50.5T532 1116t-31.5 149.5T397 1315t-104.5-49.5T260 1116z"/><glyph unicode="»" horiz-adv-x="1260" d="M1178 547L807 94 588 213l278 348-278 348 219 119 371-455v-26zm-506 0L301 94 82 213l278 348L82 909l219 119 371-455v-26z"/><glyph unicode="¼" horiz-adv-x="1804" d="M46 0zm492 586H300v446l3 112 5 95q-27-36-75-78l-78-61-109 127 301 235h191V586zm832 876L559 0H320l811 1462h239zm312-1310h-125V1h-238v151H936v154l385 577h236V320h125V152zm-363 168v164q0 86 6 184-9-26-35.5-80t-41.5-77l-127-191h198z"/><glyph unicode="½" horiz-adv-x="1804" d="M46 0zm492 586H300v446l3 112 5 95q-27-36-75-78l-78-61-109 127 301 235h191V586zm832 876L559 0H320l811 1462h239zM1716 1h-647v168l224 219q102 100 130.5 144.5T1452 627q0 38-24 58t-64 20q-81 0-180-88l-123 152q147 129 336 129 137 0 216-66.5t79-183.5q0-85-47-160t-176-192l-105-95h352V1z"/><glyph unicode="¾" horiz-adv-x="1804" d="M90 0zm607 1249q0-143-170-198v-13q94-20 146-75t52-134q0-121-88-190.5T363 569q-143 0-273 70v190q148-90 271-90 143 0 143 107 0 53-44 79.5T338 952H226v160h92q83 0 123.5 26t40.5 83q0 38-25 63t-76 25q-47 0-89-19t-99-59L92 1372q62 47 137.5 78t178.5 31q127 0 208-64t81-168zm744 213L630 0H391l811 1462h239zm271-1310h-125V1h-238v151H966v154l385 577h236V320h125V152zm-363 168v164q0 86 6 184-9-26-35.5-80t-41.5-77l-127-191h198z"/><glyph unicode="¿" horiz-adv-x="977" d="M713 606v-74q0-98-44.5-169T516 215Q407 137 378.5 93T350-14q0-57 43.5-94T526-145q79 0 169 29t186 71l102-221q-98-56-221.5-90.5T532-391q-220 0-345.5 96.5T61-29q0 108 48.5 187T301 342q95 70 121.5 107t26.5 98v59h264zm32 342q0-84-45-127t-131-43q-83 0-128.5 44T395 948q0 81 46.5 125.5T569 1118q84 0 130-44t46-126z"/><glyph unicode="À" horiz-adv-x="1413" d="M0 0zm1079 0L973 348H440L334 0H0l516 1468h379L1413 0h-334zM899 608q-147 473-165.5 535t-26.5 98q-33-128-189-633h381zm-186 971q-63 44-185 142.5T338 1886v21h342q63-101 235-301v-27H713z"/><glyph unicode="Á" horiz-adv-x="1413" d="M0 0zm1079 0L973 348H440L334 0H0l516 1468h379L1413 0h-334zM899 608q-147 473-165.5 535t-26.5 98q-33-128-189-633h381zm-358 971v27q172 200 235 301h342v-21q-52-52-177.5-154.5T744 1579H541z"/><glyph unicode="Â" horiz-adv-x="1413" d="M0 0zm1079 0L973 348H440L334 0H0l516 1468h379L1413 0h-334zM899 608q-147 473-165.5 535t-26.5 98q-33-128-189-633h381zm39 971q-157 93-234 176-78-81-229-176H272v27q189 189 256 301h357q31-52 107.5-141.5T1141 1606v-27H938z"/><glyph unicode="Ã" horiz-adv-x="1413" d="M0 0zm1079 0L973 348H440L334 0H0l516 1468h379L1413 0h-334zM899 608q-147 473-165.5 535t-26.5 98q-33-128-189-633h381zM543 1684q-31 0-59.5-26.5T442 1577H293q11 145 82.5 227t189.5 82q41 0 80.5-16.5t78-36T799 1798t73-16q31 0 59.5 26t41.5 80h149q-11-145-83.5-227T850 1579q-41 0-80.5 16.5t-78 36-75.5 36-73 16.5z"/><glyph unicode="Ä" horiz-adv-x="1413" d="M0 0zm1079 0L973 348H440L334 0H0l516 1468h379L1413 0h-334zM899 608q-147 473-165.5 535t-26.5 98q-33-128-189-633h381zM365 1743q0 65 37.5 100t101.5 35q66 0 103.5-37t37.5-98q0-60-38-96.5T504 1610q-64 0-101.5 35t-37.5 98zm403 0q0 70 40.5 102.5T909 1878q65 0 103.5-36t38.5-99q0-61-39-97t-103-36q-60 0-100.5 32.5T768 1743z"/><glyph unicode="Å" horiz-adv-x="1413" d="M0 0zm1079 0L973 348H440L334 0H0l516 1468h379L1413 0h-334zM899 608q-147 473-165.5 535t-26.5 98q-33-128-189-633h381zm60 959q0-108-71-174t-183-66-180 64-68 174q0 108 67.5 172.5T705 1802q110 0 182-66t72-169zm-158-2q0 45-27 70.5t-69 25.5-69-25.5-27-70.5 24-71 72-26q42 0 69 26t27 71z"/><glyph unicode="Æ" horiz-adv-x="1950" d="M1829 0H956v348H465L315 0H0l655 1462h1174v-254h-563V887h526V633h-526V256h563V0zM578 608h378v590H829z"/><glyph unicode="Ç" horiz-adv-x="1305" d="M119 0zm686 1225q-175 0-271-131.5T438 727q0-489 367-489 154 0 373 77V55Q998-20 776-20q-319 0-488 193.5T119 729q0 228 83 399.5t238.5 263T805 1483q213 0 428-103l-100-252q-82 39-165 68t-163 29zM959-250q0-128-75.5-185T650-492q-78 0-146 21v168q27-7 72.5-14t70.5-7q72 0 72 62 0 83-166 108L631 0h193l-27-61q74-24 118-74.5T959-250z"/><glyph unicode="È" horiz-adv-x="1147" d="M184 0zm842 0H184v1462h842v-254H494V887h495V633H494V256h532V0zM634 1579q-63 44-185 142.5T259 1886v21h342q63-101 235-301v-27H634z"/><glyph unicode="É" horiz-adv-x="1147" d="M184 0zm842 0H184v1462h842v-254H494V887h495V633H494V256h532V0zM424 1579v27q172 200 235 301h342v-21q-52-52-177.5-154.5T627 1579H424z"/><glyph unicode="Ê" horiz-adv-x="1147" d="M175 0zm851 0H184v1462h842v-254H494V887h495V633H494V256h532V0zM841 1579q-157 93-234 176-78-81-229-176H175v27q189 189 256 301h357q31-52 107.5-141.5T1044 1606v-27H841z"/><glyph unicode="Ë" horiz-adv-x="1147" d="M184 0zm842 0H184v1462h842v-254H494V887h495V633H494V256h532V0zM272 1743q0 65 37.5 100t101.5 35q66 0 103.5-37t37.5-98q0-60-38-96.5T411 1610q-64 0-101.5 35t-37.5 98zm403 0q0 70 40.5 102.5T816 1878q65 0 103.5-36t38.5-99q0-61-39-97t-103-36q-60 0-100.5 32.5T675 1743z"/><glyph unicode="Ì" horiz-adv-x="678" d="M0 0zm184 0v1462h310V0H184zm133 1579q-63 44-185 142.5T-58 1886v21h342q63-101 235-301v-27H317z"/><glyph unicode="Í" horiz-adv-x="678" d="M167 0zm17 0v1462h310V0H184zm-17 1579v27q172 200 235 301h342v-21q-52-52-177.5-154.5T370 1579H167z"/><glyph unicode="Î" horiz-adv-x="678" d="M0 0zm184 0v1462h310V0H184zm386 1579q-157 93-234 176-78-81-229-176H-96v27q189 189 256 301h357q31-52 107.5-141.5T773 1606v-27H570z"/><glyph unicode="Ï" horiz-adv-x="678" d="M0 0zm184 0v1462h310V0H184zM-3 1743q0 65 37.5 100t101.5 35q66 0 103.5-37t37.5-98q0-60-38-96.5T136 1610q-64 0-101.5 35T-3 1743zm403 0q0 70 40.5 102.5T541 1878q65 0 103.5-36t38.5-99q0-61-39-97t-103-36q-60 0-100.5 32.5T400 1743z"/><glyph unicode="Ð" horiz-adv-x="1516" d="M47 850h137v612h459q358 0 556-189t198-528q0-361-205.5-553T598 0H184v596H47v254zm1028-113q0 232-104 351.5T657 1208H494V850h237V596H494V256h131q450 0 450 481z"/><glyph unicode="Ñ" horiz-adv-x="1665" d="M184 0zm1297 0h-394L451 1106h-9q19-293 19-418V0H184v1462h391l635-1095h7q-15 285-15 403v692h279V0zM668 1684q-31 0-59.5-26.5T567 1577H418q11 145 82.5 227t189.5 82q41 0 80.5-16.5t78-36T924 1798t73-16q31 0 59.5 26t41.5 80h149q-11-145-83.5-227T975 1579q-41 0-80.5 16.5t-78 36-75.5 36-73 16.5z"/><glyph unicode="Ò" horiz-adv-x="1630" d="M119 0zm1392 733q0-363-180-558T815-20 299 175 119 735t180.5 557.5T817 1485t515.5-194T1511 733zm-1067 0q0-245 93-369t278-124q371 0 371 493 0 494-369 494-185 0-279-124.5T444 733zm380 846q-63 44-185 142.5T449 1886v21h342q63-101 235-301v-27H824z"/><glyph unicode="Ó" horiz-adv-x="1630" d="M119 0zm1392 733q0-363-180-558T815-20 299 175 119 735t180.5 557.5T817 1485t515.5-194T1511 733zm-1067 0q0-245 93-369t278-124q371 0 371 493 0 494-369 494-185 0-279-124.5T444 733zm214 846v27q172 200 235 301h342v-21q-52-52-177.5-154.5T861 1579H658z"/><glyph unicode="Ô" horiz-adv-x="1630" d="M119 0zm1392 733q0-363-180-558T815-20 299 175 119 735t180.5 557.5T817 1485t515.5-194T1511 733zm-1067 0q0-245 93-369t278-124q371 0 371 493 0 494-369 494-185 0-279-124.5T444 733zm603 846q-157 93-234 176-78-81-229-176H381v27q189 189 256 301h357q31-52 107.5-141.5T1250 1606v-27h-203z"/><glyph unicode="Õ" horiz-adv-x="1630" d="M119 0zm1392 733q0-363-180-558T815-20 299 175 119 735t180.5 557.5T817 1485t515.5-194T1511 733zm-1067 0q0-245 93-369t278-124q371 0 371 493 0 494-369 494-185 0-279-124.5T444 733zm208 951q-31 0-59.5-26.5T551 1577H402q11 145 82.5 227t189.5 82q41 0 80.5-16.5t78-36T908 1798t73-16q31 0 59.5 26t41.5 80h149q-11-145-83.5-227T959 1579q-41 0-80.5 16.5t-78 36-75.5 36-73 16.5z"/><glyph unicode="Ö" horiz-adv-x="1630" d="M119 0zm1392 733q0-363-180-558T815-20 299 175 119 735t180.5 557.5T817 1485t515.5-194T1511 733zm-1067 0q0-245 93-369t278-124q371 0 371 493 0 494-369 494-185 0-279-124.5T444 733zm30 1010q0 65 37.5 100t101.5 35q66 0 103.5-37t37.5-98q0-60-38-96.5T613 1610q-64 0-101.5 35t-37.5 98zm403 0q0 70 40.5 102.5T1018 1878q65 0 103.5-36t38.5-99q0-61-39-97t-103-36q-60 0-100.5 32.5T877 1743z"/><glyph unicode="×" d="M428 723l-299 301 152 154 301-299 305 299 153-150-305-305 301-303-149-152-305 301-301-299-150 152z"/><glyph unicode="Ø" horiz-adv-x="1630" d="M1511 733q0-363-180-558T815-20q-197 0-336 65L389-90 227 18l90 136Q119 348 119 735q0 365 180.5 557.5T817 1485q198 0 344-70l84 125 160-104-88-131q194-194 194-572zm-1067 0q0-191 56-307l506 756q-84 45-189 45-185 0-279-124.5T444 733zm742 0q0 180-51 297L635 279q76-39 180-39 371 0 371 493z"/><glyph unicode="Ù" horiz-adv-x="1548" d="M174 0zm1200 1462V516q0-162-72.5-284T1092 45 768-20q-282 0-438 144.5T174 520v942h309V567q0-169 68-248t225-79q152 0 220.5 79.5T1065 569v893h309zm-624 117q-63 44-185 142.5T375 1886v21h342q63-101 235-301v-27H750z"/><glyph unicode="Ú" horiz-adv-x="1548" d="M174 0zm1200 1462V516q0-162-72.5-284T1092 45 768-20q-282 0-438 144.5T174 520v942h309V567q0-169 68-248t225-79q152 0 220.5 79.5T1065 569v893h309zm-772 117v27q172 200 235 301h342v-21q-52-52-177.5-154.5T805 1579H602z"/><glyph unicode="Û" horiz-adv-x="1548" d="M174 0zm1200 1462V516q0-162-72.5-284T1092 45 768-20q-282 0-438 144.5T174 520v942h309V567q0-169 68-248t225-79q152 0 220.5 79.5T1065 569v893h309zm-368 117q-157 93-234 176-78-81-229-176H340v27q189 189 256 301h357q31-52 107.5-141.5T1209 1606v-27h-203z"/><glyph unicode="Ü" horiz-adv-x="1548" d="M174 0zm1200 1462V516q0-162-72.5-284T1092 45 768-20q-282 0-438 144.5T174 520v942h309V567q0-169 68-248t225-79q152 0 220.5 79.5T1065 569v893h309zm-941 281q0 65 37.5 100t101.5 35q66 0 103.5-37t37.5-98q0-60-38-96.5T572 1610q-64 0-101.5 35t-37.5 98zm403 0q0 70 40.5 102.5T977 1878q65 0 103.5-36t38.5-99q0-61-39-97t-103-36q-60 0-100.5 32.5T836 1743z"/><glyph unicode="Ý" horiz-adv-x="1278" d="M0 0zm639 860l305 602h334L793 569V0H485v559L0 1462h336zm-178 719v27q172 200 235 301h342v-21q-52-52-177.5-154.5T664 1579H461z"/><glyph unicode="Þ" horiz-adv-x="1286" d="M1194 770q0-229-142.5-353T647 293H494V0H184v1462h310v-229h178q254 0 388-119t134-344zM494 543h100q145 0 216 52.5T881 770q0 107-63.5 159T618 981H494V543z"/><glyph unicode="ß" horiz-adv-x="1456" d="M1249 1241q0-64-21-112.5t-53-86.5-69-67-69-53-53-45-21-43q0-27 26.5-53t92.5-66q146-91 198.5-140t78-110 25.5-139q0-172-116.5-259T924-20q-99 0-171 14.5T621 43v242q53-36 135.5-61T903 199q168 0 168 123 0 41-16 66.5T998 444t-115 72q-126 72-175 131.5T659 788q0 64 35 117t105 102q77 55 108 95t31 86q0 60-63.5 100.5T711 1329q-116 0-181-52.5T465 1128V0H160v1139q0 201 146.5 314.5T711 1567q244 0 391-88.5t147-237.5z"/><glyph unicode="à" horiz-adv-x="1237" d="M86 0zm784 0l-59 152h-8Q726 55 644.5 17.5T432-20q-161 0-253.5 92T86 334q0 178 124.5 262.5T586 690l194 6v49q0 170-174 170-134 0-315-81l-101 206q193 101 428 101 225 0 345-98t120-298V0H870zm-90 518l-118-4q-133-4-198-48t-65-134q0-129 148-129 106 0 169.5 61T780 426v92zm-166 723q-63 44-185 142.5T239 1548v21h342q63-101 235-301v-27H614z"/><glyph unicode="á" horiz-adv-x="1237" d="M86 0zm784 0l-59 152h-8Q726 55 644.5 17.5T432-20q-161 0-253.5 92T86 334q0 178 124.5 262.5T586 690l194 6v49q0 170-174 170-134 0-315-81l-101 206q193 101 428 101 225 0 345-98t120-298V0H870zm-90 518l-118-4q-133-4-198-48t-65-134q0-129 148-129 106 0 169.5 61T780 426v92zm-339 723v27q172 200 235 301h342v-21q-52-52-177.5-154.5T644 1241H441z"/><glyph unicode="â" horiz-adv-x="1237" d="M86 0zm784 0l-59 152h-8Q726 55 644.5 17.5T432-20q-161 0-253.5 92T86 334q0 178 124.5 262.5T586 690l194 6v49q0 170-174 170-134 0-315-81l-101 206q193 101 428 101 225 0 345-98t120-298V0H870zm-90 518l-118-4q-133-4-198-48t-65-134q0-129 148-129 106 0 169.5 61T780 426v92zm63 722q-157 93-234 176-78-81-229-176H177v27q189 189 256 301h357q31-52 107.5-141.5T1046 1267v-27H843z"/><glyph unicode="ã" horiz-adv-x="1237" d="M86 0zm784 0l-59 152h-8Q726 55 644.5 17.5T432-20q-161 0-253.5 92T86 334q0 178 124.5 262.5T586 690l194 6v49q0 170-174 170-134 0-315-81l-101 206q193 101 428 101 225 0 345-98t120-298V0H870zm-90 518l-118-4q-133-4-198-48t-65-134q0-129 148-129 106 0 169.5 61T780 426v92zm-313 828q-31 0-59.5-26.5T366 1239H217q11 145 82.5 227t189.5 82q41 0 80.5-16.5t78-36T723 1460t73-16q31 0 59.5 26t41.5 80h149q-11-145-83.5-227T774 1241q-41 0-80.5 16.5t-78 36-75.5 36-73 16.5z"/><glyph unicode="ä" horiz-adv-x="1237" d="M86 0zm784 0l-59 152h-8Q726 55 644.5 17.5T432-20q-161 0-253.5 92T86 334q0 178 124.5 262.5T586 690l194 6v49q0 170-174 170-134 0-315-81l-101 206q193 101 428 101 225 0 345-98t120-298V0H870zm-90 518l-118-4q-133-4-198-48t-65-134q0-129 148-129 106 0 169.5 61T780 426v92zm-495 887q0 65 37.5 100t101.5 35q66 0 103.5-37t37.5-98q0-60-38-96.5T424 1272q-64 0-101.5 35t-37.5 98zm403 0q0 70 40.5 102.5T829 1540q65 0 103.5-36t38.5-99q0-61-39-97t-103-36q-60 0-100.5 32.5T688 1405z"/><glyph unicode="å" horiz-adv-x="1237" d="M86 0zm784 0l-59 152h-8Q726 55 644.5 17.5T432-20q-161 0-253.5 92T86 334q0 178 124.5 262.5T586 690l194 6v49q0 170-174 170-134 0-315-81l-101 206q193 101 428 101 225 0 345-98t120-298V0H870zm-90 518l-118-4q-133-4-198-48t-65-134q0-129 148-129 106 0 169.5 61T780 426v92zm103 961q0-108-71-174t-183-66-180 64-68 174q0 108 67.5 172.5T629 1714q110 0 182-66t72-169zm-158-2q0 45-27 70.5t-69 25.5-69-25.5-27-70.5 24-71 72-26q42 0 69 26t27 71z"/><glyph unicode="æ" horiz-adv-x="1878" d="M1329-20q-137 0-249.5 50.5T895 186Q797 69 698.5 24.5T442-20q-161 0-258.5 94.5T86 334q0 178 121 262.5T569 690l191 6v84q0 69-44.5 102T594 915q-140 0-305-77l-99 202q189 101 422 101 227 0 342-131 66 64 152.5 96.5T1313 1139q221 0 349-137.5T1790 631V483h-723q5-130 77-203t202-73q196 0 380 88V59q-79-39-171-59t-226-20zM760 518l-113-4q-124-4-186-47.5T399 332q0-129 140-129 101 0 161 61t60 162v92zm547 404q-217 0-234-236h430q-2 112-55 174t-141 62z"/><glyph unicode="ç" horiz-adv-x="1053" d="M92 0zm522-20Q92-20 92 553q0 285 142 435.5T641 1139q194 0 348-76l-90-236q-72 29-134 47.5T641 893q-238 0-238-338 0-328 238-328 88 0 163 23.5T954 324V63Q880 16 804.5-2T614-20zm191-230q0-128-75.5-185T496-492q-78 0-146 21v168q27-7 72.5-14t70.5-7q72 0 72 62 0 83-166 108L477 0h193l-27-61q74-24 118-74.5T805-250z"/><glyph unicode="è" horiz-adv-x="1210" d="M92 0zm531 922q-97 0-152-61.5T408 686h428q-2 113-59 174.5T623 922zm43-942q-270 0-422 149T92 551q0 281 140.5 434.5T621 1139q237 0 369-135t132-373V483H401q5-130 77-203t202-73q101 0 191 21t188 67V59Q979 19 888-.5T666-20zm-46 1261q-63 44-185 142.5T245 1548v21h342q63-101 235-301v-27H620z"/><glyph unicode="é" horiz-adv-x="1210" d="M92 0zm531 922q-97 0-152-61.5T408 686h428q-2 113-59 174.5T623 922zm43-942q-270 0-422 149T92 551q0 281 140.5 434.5T621 1139q237 0 369-135t132-373V483H401q5-130 77-203t202-73q101 0 191 21t188 67V59Q979 19 888-.5T666-20zM447 1241v27q172 200 235 301h342v-21q-52-52-177.5-154.5T650 1241H447z"/><glyph unicode="ê" horiz-adv-x="1210" d="M92 0zm531 922q-97 0-152-61.5T408 686h428q-2 113-59 174.5T623 922zm43-942q-270 0-422 149T92 551q0 281 140.5 434.5T621 1139q237 0 369-135t132-373V483H401q5-130 77-203t202-73q101 0 191 21t188 67V59Q979 19 888-.5T666-20zm194 1261q-157 93-234 176-78-81-229-176H194v27q189 189 256 301h357q31-52 107.5-141.5T1063 1268v-27H860z"/><glyph unicode="ë" horiz-adv-x="1210" d="M92 0zm531 922q-97 0-152-61.5T408 686h428q-2 113-59 174.5T623 922zm43-942q-270 0-422 149T92 551q0 281 140.5 434.5T621 1139q237 0 369-135t132-373V483H401q5-130 77-203t202-73q101 0 191 21t188 67V59Q979 19 888-.5T666-20zM297 1405q0 65 37.5 100t101.5 35q66 0 103.5-37t37.5-98q0-60-38-96.5T436 1272q-64 0-101.5 35t-37.5 98zm403 0q0 70 40.5 102.5T841 1540q65 0 103.5-36t38.5-99q0-61-39-97t-103-36q-60 0-100.5 32.5T700 1405z"/><glyph unicode="ì" horiz-adv-x="625" d="M0 0zm465 0H160v1118h305V0zM274 1241q-63 44-185 142.5T-101 1548v21h342q63-101 235-301v-27H274z"/><glyph unicode="í" horiz-adv-x="625" d="M145 0zm320 0H160v1118h305V0zM145 1241v27q172 200 235 301h342v-21q-52-52-177.5-154.5T348 1241H145z"/><glyph unicode="î" horiz-adv-x="625" d="M0 0zm465 0H160v1118h305V0zm79 1241q-157 93-234 176-78-81-229-176h-203v27q189 189 256 301h357q31-52 107.5-141.5T747 1268v-27H544z"/><glyph unicode="ï" horiz-adv-x="625" d="M0 0zm465 0H160v1118h305V0zM-29 1405q0 65 37.5 100t101.5 35q66 0 103.5-37t37.5-98q0-60-38-96.5T110 1272q-64 0-101.5 35t-37.5 98zm403 0q0 70 40.5 102.5T515 1540q65 0 103.5-36t38.5-99q0-61-39-97t-103-36q-60 0-100.5 32.5T374 1405z"/><glyph unicode="ð" horiz-adv-x="1268" d="M510 1303q-80 53-152 92l101 176q144-65 258-141l225 139 100-154-170-104q156-143 230-324.5t74-413.5q0-280-145-436.5T631-20q-245 0-392 137T92 489q0 233 130 369.5T573 995q205 0 275-98l8 4q-67 162-192 281l-230-142-100 156zm354-771q0 108-61 173t-168 65q-121 0-176.5-68.5T403 487q0-140 60-211t172-71q123 0 176 82t53 245z"/><glyph unicode="ñ" horiz-adv-x="1346" d="M160 0zm1032 0H887v653q0 121-43 181.5T707 895q-128 0-185-85.5T465 526V0H160v1118h233l41-143h17q51 81 140.5 122.5T795 1139q195 0 296-105.5T1192 729V0zM508 1346q-31 0-59.5-26.5T407 1239H258q11 145 82.5 227t189.5 82q41 0 80.5-16.5t78-36T764 1460t73-16q31 0 59.5 26t41.5 80h149q-11-145-83.5-227T815 1241q-41 0-80.5 16.5t-78 36-75.5 36-73 16.5z"/><glyph unicode="ò" horiz-adv-x="1268" d="M92 0zm311 561q0-166 54.5-251T635 225q122 0 175.5 84.5T864 561q0 166-54 249t-177 83q-122 0-176-82.5T403 561zm773 0q0-273-144-427T631-20q-161 0-284 70.5T158 253 92 561q0 274 143 426t402 152q161 0 284-70t189-201 66-307zm-564 680q-63 44-185 142.5T237 1548v21h342q63-101 235-301v-27H612z"/><glyph unicode="ó" horiz-adv-x="1268" d="M92 0zm311 561q0-166 54.5-251T635 225q122 0 175.5 84.5T864 561q0 166-54 249t-177 83q-122 0-176-82.5T403 561zm773 0q0-273-144-427T631-20q-161 0-284 70.5T158 253 92 561q0 274 143 426t402 152q161 0 284-70t189-201 66-307zm-709 680v27q172 200 235 301h342v-21q-52-52-177.5-154.5T670 1241H467z"/><glyph unicode="ô" horiz-adv-x="1268" d="M92 0zm311 561q0-166 54.5-251T635 225q122 0 175.5 84.5T864 561q0 166-54 249t-177 83q-122 0-176-82.5T403 561zm773 0q0-273-144-427T631-20q-161 0-284 70.5T158 253 92 561q0 274 143 426t402 152q161 0 284-70t189-201 66-307zm-312 680q-157 93-234 176-78-81-229-176H198v27q189 189 256 301h357q31-52 107.5-141.5T1067 1268v-27H864z"/><glyph unicode="õ" horiz-adv-x="1268" d="M92 0zm311 561q0-166 54.5-251T635 225q122 0 175.5 84.5T864 561q0 166-54 249t-177 83q-122 0-176-82.5T403 561zm773 0q0-273-144-427T631-20q-161 0-284 70.5T158 253 92 561q0 274 143 426t402 152q161 0 284-70t189-201 66-307zm-707 785q-31 0-59.5-26.5T368 1239H219q11 145 82.5 227t189.5 82q41 0 80.5-16.5t78-36T725 1460t73-16q31 0 59.5 26t41.5 80h149q-11-145-83.5-227T776 1241q-41 0-80.5 16.5t-78 36-75.5 36-73 16.5z"/><glyph unicode="ö" horiz-adv-x="1268" d="M92 0zm311 561q0-166 54.5-251T635 225q122 0 175.5 84.5T864 561q0 166-54 249t-177 83q-122 0-176-82.5T403 561zm773 0q0-273-144-427T631-20q-161 0-284 70.5T158 253 92 561q0 274 143 426t402 152q161 0 284-70t189-201 66-307zm-885 844q0 65 37.5 100t101.5 35q66 0 103.5-37t37.5-98q0-60-38-96.5T430 1272q-64 0-101.5 35t-37.5 98zm403 0q0 70 40.5 102.5T835 1540q65 0 103.5-36t38.5-99q0-61-39-97t-103-36q-60 0-100.5 32.5T694 1405z"/><glyph unicode="÷" d="M88 612v219h993V612H88zm356-239q0 76 37 113.5T584 524t102.5-39T723 373q0-70-37-111t-102-41-102.5 39T444 373zm0 698q0 75 37 113.5t103 38.5q67 0 103-40.5t36-111.5q0-70-37-110.5T584 920t-102.5 39-37.5 112z"/><glyph unicode="ø" horiz-adv-x="1268" d="M1176 561q0-273-144-427T631-20q-126 0-234 45L330-76 176 29l68 100Q92 285 92 561q0 274 143 426t402 152q132 0 248-52l55 82 152-108-58-84q142-155 142-416zm-773 0q0-94 19-166l317 475q-43 23-106 23-122 0-176-82.5T403 561zm461 0q0 81-12 141L543 240q38-15 92-15 122 0 175.5 84.5T864 561z"/><glyph unicode="ù" horiz-adv-x="1346" d="M154 0zm798 0l-41 143h-16Q846 65 756 22.5T551-20Q354-20 254 85.5T154 389v729h305V465q0-121 43-181.5T639 223q128 0 185 85.5T881 592v526h305V0H952zM620 1241q-63 44-185 142.5T245 1548v21h342q63-101 235-301v-27H620z"/><glyph unicode="ú" horiz-adv-x="1346" d="M154 0zm798 0l-41 143h-16Q846 65 756 22.5T551-20Q354-20 254 85.5T154 389v729h305V465q0-121 43-181.5T639 223q128 0 185 85.5T881 592v526h305V0H952zM498 1241v27q172 200 235 301h342v-21q-52-52-177.5-154.5T701 1241H498z"/><glyph unicode="û" horiz-adv-x="1346" d="M154 0zm798 0l-41 143h-16Q846 65 756 22.5T551-20Q354-20 254 85.5T154 389v729h305V465q0-121 43-181.5T639 223q128 0 185 85.5T881 592v526h305V0H952zm-51 1241q-157 93-234 176-78-81-229-176H235v27q189 189 256 301h357q31-52 107.5-141.5T1104 1268v-27H901z"/><glyph unicode="ü" horiz-adv-x="1346" d="M154 0zm798 0l-41 143h-16Q846 65 756 22.5T551-20Q354-20 254 85.5T154 389v729h305V465q0-121 43-181.5T639 223q128 0 185 85.5T881 592v526h305V0H952zM326 1405q0 65 37.5 100t101.5 35q66 0 103.5-37t37.5-98q0-60-38-96.5T465 1272q-64 0-101.5 35t-37.5 98zm403 0q0 70 40.5 102.5T870 1540q65 0 103.5-36t38.5-99q0-61-39-97t-103-36q-60 0-100.5 32.5T729 1405z"/><glyph unicode="ý" horiz-adv-x="1165" d="M0 0zm0 1118h334l211-629q27-82 37-194h6q11 103 43 194l207 629h327L692-143q-65-175-185.5-262T225-492q-79 0-155 17v242q55-13 120-13 81 0 141.5 49.5T426-47l18 55zm393 123v27q172 200 235 301h342v-21q-52-52-177.5-154.5T596 1241H393z"/><glyph unicode="þ" horiz-adv-x="1296" d="M465 973q50 81 131 123.5t186 42.5q198 0 310-154.5T1204 561q0-273-111.5-427T782-20q-213 0-317 137h-14l7-62 7-94v-453H160v2048h305v-391l-7-120-7-72h14zm219-78q-113 0-165-69.5T465 596v-33q0-180 53.5-258T688 227q205 0 205 338 0 165-50.5 247.5T684 895z"/><glyph unicode="ÿ" horiz-adv-x="1165" d="M0 0zm0 1118h334l211-629q27-82 37-194h6q11 103 43 194l207 629h327L692-143q-65-175-185.5-262T225-492q-79 0-155 17v242q55-13 120-13 81 0 141.5 49.5T426-47l18 55zm243 287q0 65 37.5 100t101.5 35q66 0 103.5-37t37.5-98q0-60-38-96.5T382 1272q-64 0-101.5 35t-37.5 98zm403 0q0 70 40.5 102.5T787 1540q65 0 103.5-36t38.5-99q0-61-39-97t-103-36q-60 0-100.5 32.5T646 1405z"/><glyph unicode="ı" horiz-adv-x="625" d="M465 0H160v1118h305V0z"/><glyph unicode="Œ" horiz-adv-x="1993" d="M1872 0H999q-38-9-109-14.5T774-20q-319 0-487 197T119 735q0 363 169.5 556.5T776 1485q61 0 127-7t101-16h868v-254h-563V887h526V633h-526V256h563V0zM776 1227q-166 0-252-125.5T438 733q0-244 86-368.5T774 240q65 0 126 10.5t99 28.5v907q-35 19-101.5 30T776 1227z"/><glyph unicode="œ" horiz-adv-x="2003" d="M1446-20q-271 0-420 155Q885-20 635-20q-162 0-286 70T158.5 252 92 561q0 277 141.5 427.5T633 1139q112 0 212-39.5T1016 983q144 156 383 156 244 0 380-135t136-373V483h-746v-8q7-127 81.5-197.5T1458 207q107 0 200 21t193 67V59q-81-39-175.5-59T1446-20zM403 561q0-166 54.5-251T635 225q122 0 175.5 84.5T864 561q0 166-54 249t-177 83q-122 0-176-82.5T403 561zm1002 361q-94 0-156-57.5T1178 686h450q-2 111-60.5 173.5T1405 922z"/><glyph unicode="Ÿ" horiz-adv-x="1278" d="M0 0zm639 860l305 602h334L793 569V0H485v559L0 1462h336zm-342 883q0 65 37.5 100t101.5 35q66 0 103.5-37t37.5-98q0-60-38-96.5T436 1610q-64 0-101.5 35t-37.5 98zm403 0q0 70 40.5 102.5T841 1878q65 0 103.5-36t38.5-99q0-61-39-97t-103-36q-60 0-100.5 32.5T700 1743z"/><glyph unicode="ˆ" horiz-adv-x="1243" d="M852 1241q-157 93-234 176-78-81-229-176H186v27q189 189 256 301h357q31-52 107.5-141.5T1055 1268v-27H852z"/><glyph unicode="˚" horiz-adv-x="1182" d="M842 1479q0-108-71-174t-183-66-180 64-68 174q0 108 67.5 172.5T588 1714q110 0 182-66t72-169zm-158-2q0 45-27 70.5t-69 25.5-69-25.5-27-70.5 24-71 72-26q42 0 69 26t27 71z"/><glyph unicode="˜" horiz-adv-x="1243" d="M457 1346q-31 0-59.5-26.5T356 1239H207q11 145 82.5 227t189.5 82q41 0 80.5-16.5t78-36T713 1460t73-16q31 0 59.5 26t41.5 80h149q-11-145-83.5-227T764 1241q-41 0-80.5 16.5t-78 36-75.5 36-73 16.5z"/><glyph horiz-adv-x="953"/><glyph horiz-adv-x="1907"/><glyph horiz-adv-x="953"/><glyph horiz-adv-x="1907"/><glyph horiz-adv-x="635"/><glyph horiz-adv-x="476"/><glyph horiz-adv-x="317"/><glyph horiz-adv-x="317"/><glyph horiz-adv-x="238"/><glyph horiz-adv-x="381"/><glyph horiz-adv-x="105"/><glyph unicode="‐" horiz-adv-x="659" d="M61 424v250h537V424H61z"/><glyph unicode="‑" horiz-adv-x="659" d="M61 424v250h537V424H61z"/><glyph unicode="‒" horiz-adv-x="659" d="M61 424v250h537V424H61z"/><glyph unicode="–" horiz-adv-x="1024" d="M82 436v230h860V436H82z"/><glyph unicode="—" horiz-adv-x="2048" d="M82 436v230h1884V436H82z"/><glyph unicode="‘" horiz-adv-x="444" d="M39 961l-14 22q22 91 72.5 228.5T201 1462h219q-66-267-101-501H39z"/><glyph unicode="’" horiz-adv-x="444" d="M406 1462l14-22q-50-197-176-479H25q69 296 100 501h281z"/><glyph unicode="‚" horiz-adv-x="596" d="M459 215Q407 13 283-264H63Q128 2 164 238h280z"/><glyph unicode="“" horiz-adv-x="911" d="M492 983q22 91 72.5 228.5T668 1462h219q-66-267-101-501H506zm-467 0q22 91 72.5 228.5T201 1462h219q-66-267-101-501H39z"/><glyph unicode="”" horiz-adv-x="911" d="M420 1440q-50-197-176-479H25q69 296 100 501h281zm467 0q-50-197-176-479H492q69 296 100 501h280z"/><glyph unicode="„" horiz-adv-x="1061" d="M459 215Q407 13 283-264H63Q128 2 164 238h280zm467 0Q874 13 750-264H530Q595 2 631 238h280z"/><glyph unicode="•" horiz-adv-x="770" d="M98 748q0 154 74 235.5t213 81.5q137 0 212-82t75-235q0-152-75.5-235T385 430q-138 0-212.5 83T98 748z"/><glyph unicode="…" horiz-adv-x="1751" d="M117 143q0 84 45 127t131 43q83 0 128.5-44T467 143q0-79-46-124.5T293-27q-84 0-130 44.5T117 143zm583 0q0 84 45 127t132 43q83 0 128.5-44t45.5-126q0-79-46-124.5T877-27q-85 0-131 44.5T700 143zm584 0q0 84 45 127t131 43q83 0 128.5-44t45.5-126q0-79-46-124.5T1460-27q-84 0-130 44.5T1284 143z"/><glyph horiz-adv-x="381"/><glyph unicode="‹" horiz-adv-x="754" d="M82 573l371 455 219-119-279-348 279-348L453 94 82 547v26z"/><glyph unicode="›" horiz-adv-x="754" d="M672 547L301 94 82 213l278 348L82 909l219 119 371-455v-26z"/><glyph unicode="⁄" horiz-adv-x="266" d="M657 1462L-154 0h-239l811 1462h239z"/><glyph horiz-adv-x="476"/><glyph unicode="⁴" horiz-adv-x="776" d="M758 737H633V586H395v151H12v154l385 577h236V905h125V737zM395 905v164q0 86 6 184-9-26-35.5-80t-41.5-77L197 905h198z"/><glyph unicode="€" d="M803 1225q-122 0-201-70.5T500 950h403V774H485l-2-35v-47l2-33h355V481H502q51-243 321-243 143 0 275 57V39Q982-20 805-20q-245 0-403 133T203 481H66v178h118q-4 23-4 62l2 53H66v176h133q37 242 199 382.5T803 1473q188 0 352-82l-98-232q-69 31-129 48.5T803 1225z"/><glyph unicode="™" horiz-adv-x="1534" d="M381 741H213v572H16v149h564v-149H381V741zm575 0l-165 529h-7l4-111V741H625v721h247l160-510 170 510h240V741h-168v408l4 121h-6l-174-529H956z"/><glyph unicode="" horiz-adv-x="1120" d="M0 1120h1120V0H0v1120z"/><glyph horiz-adv-x="1296" d="M0 0z"/></font>
</defs>
</svg>
